&title=六兆年と一夜物語 [DX]
&wholebpm=186
&artist=kemu
&des=うさぎランドリー
&shortid=10288
&genre=niconicoボーカロイド
&cabinet=DX
&version=maimai DX
&chartconverter=Neskol
&lv_2=4
&des_2=-
&lv_3=7+
&des_3=-
&lv_4=9
&des_4=華火職人
&lv_5=13+
&des_5=うさぎランドリー
&des_6=
&inote_2=
(156){1},
{1},
(161){4},,(167),(161),
(160){4},(166),,(162),
{4},(171),(156),(135),
(145){1},
(155){4},(165),,(150),
(130){4},(155),(129),(141),
{1},
{4},(186),4x,,
{2},5x,
{2},4x,
{2},4x/5x,
{2}4x/5x,3,
{2}3,2,
{2}2,1b,
{1},
{2},8,
{2}8,8,
{2},7,
{2}7,7,
{2},6,
{2}6,6,
{2},4h[1:1]/5h[1:1],
{1},
{2},3,
{2}3,3,
{2},2,
{2}2,2,
{2},1,
{2}1,1,
{2},1h[1:1]/8h[1:1],
{1},
{2},8-4[4:3],
{1},
{2},1-5[4:3],
{1},
{2},B4/B5,
{2},B3/B6,
{2},C1hf[1:1],
{1},
{2},8x,
{4}8,,7,7,
{2}7,6,
{4}6,,5,5,
{2}5,4,
{4}4,,3,3,
{2}3,2,
{2}2,1x/8x,
{2}1b/8b,2,
{4}2,,3,3,
{2}3,4,
{4}4,,5x,5x,
{2}5x,6,
{4}6,,7,7,
{2}7,1/8,
{4}1/8,,1x,8x,
{4}1b,,8,8,
{4}8,,7,7,
{4}7,,6,6,
{4}6,,4x/5x,4x/5x,
{4}4b/5b,,4,4,
{4}4,,3,3,
{4}3,,2,2,
{4}2,,1x,8x,
{4}1b,,8,8,
(178.478){4}1,(168.416)1,(162.607)8h[8:7],(140.856),
(126.931){4},(108.727),(119.51),,
(186){4},,1,1,
{4}8,8,1x/8x,1x/8x,
{4}2x/7x,,1,1,
{4}1,,2,2,
{4}2,,3,3,
{4}3,,4,5,
{4}4,,5,5,
{4}5,,6,6,
{2}6,7-3[1:1],
{1},
{2},2-6[1:1],
{1},
{1},
{1},
E
&inote_3=
(156){1},
{1},
(161){4}B7,,(167),(161),
(160){4}C1,(166),,(162),
{4}B3,(171),(156),(135),
(145){1}B2,
(155){4}C1hf[4:7],(165),,(150),
(130){4},(155),(129),(141),
{1},
{4},(186),8,8,
{4}1/7,,1,1,
{4}2/8,,8,8,
{4}1/7,,8,1/8,
{4}2/7,,2,1,
{4}2/8,,7,8,
{4}1/7,,1,1,
{4}8,8,1x/8x,1x/8x,
{2}2b/7b,6h[2:1],
{2}5,3h[2:1],
{2}4,6h[2:1],
{4}5,5,6,6,
{2}5x/6x,3h[2:1],
{2}4,6h[2:1],
{2}5,3h[2:1],
{4}4,4,3,3,
{4}2x/4x,,6,6,
{4}5,,3,3,
{4}4,,6,6,
{4}5,5,4,3,
{4}2x/4x,,3,3,
{4}4,,6,6,
{4}5,,3,3,
{4}2,2,1,8,
{2}2b/7b,8-5[8:5],
{1},
{4}4,4,4-1[8:5],,
{1},
{4}8,8,1>4[8:5]/8<5[8:5],,
{1},
{4}5x,5x,4,3,
{4}2,1x/8x,2b/7b,,
{4}8x,8x,2,2,
{4}1/2,1/2,7,7/8,
{4}1x/6x,,6h[4:1],5,
{4}3h[4:1],4,5h[4:1],4,
{4}3x/6x,,7,7,
{4}8,1/7,2,1/2,
{4}3x/8x,,3h[4:1],4,
{4}6h[4:1],5,4/5,3/6,
{4}2b/7b,,7,7,
{4}7/8,7/8,2,1/2,
{4}3x/8x,,3h[4:1],4,
{4}6h[4:1],5,4h[4:1],5,
{4}3x/6x,,2,2,
{4}1,2/8,7,7/8,
{4}1x/6x,,6h[4:1],5,
{4}3h[4:1],4,4/5,3/6,
{4}2b/7b,,7,7,
{4}8,1/2,3,3/4,
{4}2x/5x,,3h[4:1],4,
{4}6h[4:1],5,5/6,4/7,
{4}3b/8b,,2,2,
{4}1,7/8,6,5/6,
{4}4x/7x,,6h[4:1],5,
{4}3h[4:1],4,3/4,2/5,
{4}1b/6b,,5,5,
{4}4,(175)4,(160)4qq1[0.375##1.6295081967213179]/5pp8[0.375##1.6295081967213179],(150),
(122){4},,,(114),
(170){4}1x,1x,(186)7h[4:1],8,
{4}2h[4:1],1,1/2,3/8,
{4}4b/7b,,5,6,
{4}7,7/8,1,2,
{4}3,3/4,4,3,
{4}2,1/2,8,1/8,
{4}2x/7x,,8,7,
{4}6,5/6,4,3,
{4}2,1/2,3x/8x<4[4:3],,
{1},
{4}3x,2x,1x>5[4:3],,
{1},
{1},
{1},
E
&inote_4=
(156){1},
{1},
(161){4}1>6[0.37267080745341596##1.3858730520325815],,(167),(161),
(160){4},(166),,(162),
{4}8<3[0.37037037037037024##1.4902818496284933],(171),(156),(135),
(145){1},
(155){4}1>8[0.38709677419354804##3.611237008031951]/8<1[0.38709677419354804##3.611237008031951],(165),,(150),
(130){4},(155),(129),(141),
{1},
{8},,(186),,7/8,7/8,,,
{8}6,,3/5,,1/2,1/2,,,
{8}3,,4/6,,2/7,2/7,,,
{4}1/8,3/6,3/4,5/6,
{4}2b/7b,,2h[4:3],4,
{4}3,4,7h[4:3],5,
{8}6,,5,,1x/3x,,,6x/8x,
{8},,4x/5x,,,2x>5[8:3]/7x,,,
{2},5/6h[2:1],
{2}B5,3h[2:1]/4,
{2}B4,5/6h[2:1],
{2}B5,3h[2:1]/4,
{2}B4,4/7h[2:1],
{2}B5,2h[2:1]/5,
{2}B4,B3/B6,
{2}C1,E2/E8,
{4}1x/8x,,3h[1:1],4,
{4}4,5,6h[4:1],5,
{4}4/7,,6h[1:1],5,
{4}5,4,3h[4:1],4,
{4}2/5,,2,2,
{4}3/5,6,2/7,7,
{4}4/6,3,2>7[2:1],,
{4},,1/8,2/7,
{8}3x/6x,,,,2h[8:3],,,4h[8:3],
{4},8b,,,
{8},,,,7h[8:3],,,5h[8:3],
{4},1b,,,
{2},1/2>5[8:3],
{2},7<4[8:3]/8,
{4},,1/8,1/8,
{4}2/7,3/6,C1f,,
{4},,1/2,3/5,
{8}7/8,,4/6,,5,5,3,,
{4}2b/7b,,1/8,5/6,
{4}1/8,3/4,5/7,2/4,
{4}3b/6b,,3/4,2/8,
{8}5/6,,1/7,,8,8,2,,
{8}3b/7b,,,,2x,2x,5x,5x,
{8}4x,4x,8x,,1x/7x,,2x/8x,,
{4}3b/6b,,1/8,2x/7x,
{8}3/4,,1/6,,7,7,4,,
{8}2b/6b,,,,2,2,4,,
{8}7,7,5,,1/3,,6/8,,
{4}2b/7b,,4/5,3/6,
{8}7/8,,2/5,,3,3,8,,
{8}2b/6b,,,,6x,6x,1x,1x,
{8}8x,8x,4x,,2x/5x,,4x/7x,,
{4}2b/7b,,1/8,2x/7x,
{8}6,6,8,,3,3,1,,
{8}2b/7b,,,,6,5,7,,
{8}3,4,2,,1/3,,6/8,,
{8}2b/7b,,,,2,1,3,,
{8}7,8,6,,5/7,,2/4,,
{8}3b/6b,,,,7x,7x,2x,2x,
{8}5x,5x,8x,,6x/8x,,1x/3x,,
{2}2b/7b,7/8-3[8:1],
{8}1-6[0.32258064516128115##0.17142857142857792]/2,,(175),,(160)3x,4x,(150)5x,6x,
(122){4}2xh[2:1]/7xh[2:1],,,(114),
(170){8}1/3,,6/8,,(186)1x,1x,6x,6x,
{8}3x,3x,8x,,1/8,,4/5,,
{4}2b/6b,,2h[2:1],B8,
{4}B5,,7h[2:1],B1,
{4}B4,,B6,B5,
{4}B4,B3,3h[4:1]/6h[4:1],,
{4}B1/B2/B7/B8,,6h[2:1],B5,
{4}B1,,3h[2:1],B4,
{8}B8,,,,1x/3x,,,6x/8x,
{8},,4x/5x,,,2x>5[8:3]/7x,,,
{8},,,,6x/7x,,,2x/3x,
{8},,4x/5x,,,C1f,,,
{1},
{1},
{1},
E
&inote_5=
(156){1},
{1},
(161){4}B3,,(167),(161),
(160){4}B6,(166),,(162),
{4}B1/B8,(171),(156)B2/B7,(135),
(145){2}B3/B6,C1/B4/B5,
(155){4}E1/B8,(165),B6/E7,(150),
(130){16}B4/E5,,,,(155),,B2,B3,(129)B4,,,,(141)C1xh[4:5]/B2/B3/B6/B7,,,,
{1},
{8},,(186)7/8,,1x/6x,1x/6x,,,
{16}2,1,2,1,2,,3,,4x/7x,,4x/7x,,,,,,
{16}7,8,7,8,7,,6,,2x/5x,,2x/5x,,,,,,
{16}2,1,2,1,2,,3,,4x/7x,,4x/7x,,8,1,8,1,
{8}8-4[8:1],,1b,,5,6,4/7h[4:1],,
{16}8,7,8,7,8,,6,,4,,3,,2h[4:1]/5,,,,
{16}1,2,1,2,1,,3,,4x,5,4,5,4,,7x,5,
{16}7,5,7,,2x,4,2,4,2,,8x,1,8,1,2b/7b,,
{8},,,,3/4,,3,4,
{8}3/4,,3,4,3/4,,2/4,,
{8}3/4,,4/5,,5/6,,6,5,
{8}5/6,,6,5,5/6,,5/7,,
{4}5/6,3/4<8[4:1],2,3,
{4}4,5>1[4:1]/6,7,6,
{8}5,,3/4,,2/4,,4/6,5,
{8}4,,3/5,4,5,5,4,4,
{16}6,5,6,,4x/7x,,,,3/4,,,,3,,4,,
{8}3/5,,3,4,3/5<7[4:1],,4,,
{8}5,,5/6,,4/6,,6,5,
{8}4/6,,6,5,4>2[4:1]/6,,5,,
{8}4,,3>7[4:1]/4,,7,,5,5,
{8}5,,5/6<2[4:1],,2,,4,4,
{8}4,,3/4,,5/6,,2/4,3,
{8}5,,5/7,6,4,4,5,5,
{16}3,4,3,,2x/5x,,,,7h[4:1]/8,,,,3,,2h[4:1]/4,,
{8},5,4h[2:1]/6h[2:1],,,,,,
{8}7/8,,3/4,,1/2h[4:1],,6,5/7h[4:1],
{8},4,3h[2:1]/5h[2:1],,,,,,
{12}E2,E3,E4,E8,E7,E6,2h[2:3],,,E1,,,
{4}E3,E7,E5,,
{8}C1,,,,3/4,3/4,2/5,2/5,
{8}1/6,1/6,7/8,7/8,1b/6b,,,,
{8}2-5[8:1]/6,,2b/7-4[8:1],,3/7b,,1-5[8:1],8,
{16}1/7,,,6,6-1[8:1],,5,,4/6,,,2,2,,8,,
{8}5/7,,4/5,3,1/2h[4:1],,E1,2,
{8}E7,2,E5,2,5-1[8:1],,1,,
{4}3/7,1-5[8:1]*-6[8:1]/8,1,1/8-3[8:1]*-4[8:1],
{8}8,,2-6[8:1],2,5-8[8:1],5,2,3,
{16}4/8,,,,2/5,,1/6,,7/8,,6,5,6,,7,8,
{16}7,,6,4,6,,7,1,7,,6/8,,1/5,,2/4,,
{4}3h[4:1],C1f,1x-6[8:1]/2x-5[8:1],1b/2b,
{16}3/7,,,4,4-8[8:1],,5,,4/6,,,7,7,,1,,
{8}2/4,,4/5,6,7h[4:1]/8,,E1,7,
{8}E3,7,E5,7,5-1[8:1]/6-1[8:1],,5x/6x,,
{4}3b/7b,1/8-3[8:1]*-4[8:1],8,1-5[8:1]*-6[8:1]/8,
{8}1,,7-3[8:1],7,4-1[8:1],4,7,6,
{16}1/5,,,,4/7,,3/8,,1/2,,3,4,3,,2,1,
{16}2,,3,5,3,,2,8,2,,1/3,,4/8,,5/7,,
{4}6h[4:1],C1f,7x-3[8:1]/8x-4[8:1],7b/8b,
{16}1/6,,,5,5-1[8:1],,4,,2/5,,,3,3,,5,,
{8}6/8,,4/5,3,1/2h[4:1],,E1/B8,2,
{8}B6/E7,2,B4/E5,2,3-8[8:1]/7-4[8:1],,3x/7x,,
{4}2b/6b,3-1[8:1]*-8[8:1]/4,3,5/6-1[8:1]*-8[8:1],
{8}6,,2p6[8:1],2,5<8[8:1],5,2,3,
{16}4/8,,,,3/4,,2/5,,1/6,,7,8,7,,6,5,
{16}6,,7,1,7,,6,4,6,,5/7,,4/8,,1/3,,
{4}2h[4:1],C1f,3-8[8:1]/4,3/6-1[0.3225806451613096##0.16808794361209323],
(178.478){8}2/6,,(168.416)3b/7h[8:9],,(162.607)E3,E4,(140.856)E5,E6,
(126.931){8}E7,E8,(108.727)E1,C1xh[8:5],(119.51),,,,
(186){16}8-4[8:1],,,,8b,,,,2,1,2,1,4,5,4,5,
{16}8,7,8,7,4,5,4,,1x/2x,,3x/4x,,5x/6x,,7x/8x,,
{8}1xw5[8:1]/2x,,1b,,4/6,3,2h[4:1]/4,,
{16}1,3,1,3,1,,4,,3/5,,6,,5/7h[4:1],,,,
{16}8,6,8,6,8,,5,,4/6,,3,,2h[4:1]/4,,,,
{16}1,3,1,3,1,,4,,3/6,,2/7,,8,1,8,1,
{8}8-3[8:1]*-5[8:1],,8b,,1/8,7,5h[4:1]/6,,
{16}6,5,6,7,6,,2,,1/8,,2,,3/4h[4:1],,,,
{16}3,4,3,2,3,,7,,4x,5,4,5,4,,7x,5,
{16}7,5,7,,2x,4,2,4,2,,8x,1,8,1,8b,,
{16}3/5,,3/5,,4/6,,4/6,,3x,4,3,2,3,,6x,5,
{16}6,7,6,,2x,1,2,3,2,,7x-3[8:1],8,7,6,7b,,
{1},
{1},
{1},
E
